#TITLE:71906_newgrounds_blaze;
#SUBTITLE:;
#ARTIST:Unknown artist;
#TITLETRANSLIT:;
#SUBTITLETRANSLIT:;
#ARTISTTRANSLIT:;
#CREDIT:;
#BANNER:;
#BACKGROUND:;
#LYRICSPATH:;
#CDTITLE:;
#MUSIC:71906_newgrounds_blaze.mp3;
#OFFSET:0.000;
#SAMPLESTART:100.000;
#SAMPLELENGTH:12.000;
#SELECTABLE:YES;
#BPMS:0.000=240.041;
#STOPS:;
#BGCHANGES:;
// cache tags:
#FIRSTBEAT:1.667;
#LASTBEAT:787.667;
#SONGFILENAME:Songs/Music V.I.P ^_^/71906_newgrounds_blaze/71906_newgrounds_blaze.sm;
#HASMUSIC:1;
#HASBANNER:0;
#MUSICLENGTH:198.974;
// end cache tags

//---------------dance-single - ----------------
#NOTES:
     dance-single:
     :
     Challenge:
     15:
     0.991,1.000,1.000,0.482,1.000,969.000,297.000,96.000,0.000,64.000:
0000
0000
0000
0000
0000
1000
0000
0000
0001
0000
0000
1000
,
0000
0001
0000
1000
0000
0000
0001
0010
0000
0100
0000
1000
,
0000
0000
0000
0001
0000
0000
0001
0000
0000
0001
0000
0010
,
0000
0000
1000
0000
0000
0001
0000
0000
0001
0000
0001
0000
,
0000
0010
0000
0100
1000
0000
0001
0000
0000
0001
0000
0000
,
0001
0000
0000
0001
0000
0010
0000
0000
1100
0000
0000
0001
,
0000
0000
1001
0000
0000
0110
0000
0000
0000
1010
0000
0000
,
1100
0000
0000
0000
0101
0000
0000
0000
0011
0000
0000
0000
,
0110
0000
0000
0000
1001
0000
0000
0000
0110
0000
0000
0000
,
1010
0000
0000
1100
0000
0000
0000
0101
0000
0000
0000
0011
,
0000
0000
0000
0000
0110
0000
0000
0000
1001
0000
0000
0000
,
0110
0000
0000
0000
1010
0000
0000
0000
1100
0000
0000
0000
,
0101
0000
0000
0000
0011
0000
0000
0000
0000
0110
0000
0000
,
0000
1001
0000
0000
0000
0110
0000
0000
0000
1010
0000
0000
,
0000
1100
0000
0000
0000
0101
0000
0000
0011
0000
0000
0000
,
0110
0000
0000
0000
1001
0000
0000
0000
0000
0110
0000
0000
,
0000
0110
0000
0000
0000
1001
0000
0000
1001
0000
0000
0010
,
0000
0000
1000
0001
0000
1000
0000
0001
1000
0000
0000
0001
,
0000
0110
0000
1000
0000
0001
0100
0000
0000
0011
0100
1000
,
0000
0001
0000
0000
0110
0000
0001
0000
0010
0000
0100
0000
,
1000
0000
0001
0000
0010
0100
0000
1000
0000
0001
0000
1000
,
0000
0001
1000
0000
0100
0000
0000
0010
0002
0000
0010
0003
,
0000
1000
0100
0000
0000
0010
0000
0001
0010
0000
0000
0100
,
1000
0002
0000
0000
0000
0000
0013
0100
0000
1000
0002
0000
,
0000
0000
0000
0010
0000
2003
0000
0000
0000
0000
0100
3000
,
0000
0010
0000
0001
0010
0000
0000
2000
0000
0000
0000
3001
,
0000
0100
0000
0000
0010
0000
0001
0000
0010
0000
0100
0000
,
1000
0100
0000
0000
0010
0000
0001
0010
0000
0100
1000
0000
,
0000
0100
0000
0010
0000
0000
0011
0000
0000
0100
2000
0000
,
0000
0100
3000
0010
0000
0000
0001
0010
0100
0000
1000
0000
,
0001
0000
2000
0002
0000
0000
0000
0000
0000
0000
0000
0000
,
0100
0000
0000
0000
0000
0000
0100
0000
0100
0000
0000
0100
,
0000
0100
0000
0000
0100
0000
0100
0000
0000
0100
3003
0000
,
0100
0000
0001
0000
0010
0000
0000
0100
1000
0100
0000
0001
,
0010
0000
0100
0000
1000
0100
0000
0000
0010
0000
0011
0000
,
0000
0100
1000
0000
0100
0000
0010
0000
0000
0011
0000
0000
,
0000
1000
0000
0000
0100
0000
0010
0000
0001
0010
0000
0100
,
1000
0000
0100
0000
0000
0110
0000
0011
0000
0000
0011
0100
,
2000
0002
0000
0000
0000
0000
0000
0000
0000
0000
0000
0000
,
0000
3003
0000
1001
0000
0000
1001
0000
0000
1101
0000
1001
,
0000
1001
0000
1101
0000
1101
0000
1000
0001
1001
0000
0000
,
1001
0000
1001
0000
0000
0011
0000
0011
0000
0011
0000
1100
,
0000
0001
0100
0000
0010
0002
0000
0010
0100
1003
0001
0110
,
0000
1000
0011
0100
1000
0000
0011
0100
1000
0001
0000
1001
,
0000
1001
0000
0000
1101
0000
1101
0000
1001
0000
0000
1001
,
0000
1001
0000
0000
0001
0010
0100
0000
1000
0000
0100
0001
,
0000
0010
0100
0000
1000
0001
0000
0000
1000
0000
0000
0000
,
1100
0000
0100
0000
0000
0010
0000
0001
0010
0000
0000
0100
,
0000
0100
0000
0000
0110
0000
0000
0010
0000
0100
0000
0000
,
0100
0000
1000
0000
0000
1001
0000
0001
0000
0000
0001
0000
,
1001
0000
1001
0000
1001
0000
1001
0000
0000
1001
0000
1001
,
0000
1001
0000
1001
0000
0000
1001
0000
1001
0000
1001
0000
,
0000
1001
0000
1000
0000
0001
0000
1000
0001
0000
1000
0001
,
1000
0000
0001
1000
0001
0000
1000
0001
0000
1000
0000
0000
,
1000
0000
1000
0001
1000
0001
1000
0001
0000
1001
0000
1001
,
0000
1001
0000
1001
0000
0000
1001
0000
1001
0000
0001
1000
,
0001
1000
0000
1001
0000
0001
1000
0001
1000
0000
0001
1000
,
0001
0000
1001
0000
1000
0001
1000
0001
0000
1001
0000
0001
,
1000
0001
1000
0000
1001
0000
1001
0000
1001
0000
1000
0001
,
0000
1000
0001
0000
1000
0001
0000
0010
0100
1000
0000
0101
,
0000
1000
0001
0000
1000
0000
0001
0000
0010
0100
0000
1000
,
0000
0001
0000
0010
0000
1100
0000
0001
0100
1000
0000
0110
,
0000
0000
0110
0000
0010
0100
0110
0000
0110
0000
0000
0110
,
0000
0110
0000
0110
0000
0110
0000
0000
0110
0000
0110
0000
,
0110
0000
0000
0110
0000
1010
0000
1010
0000
0101
0000
0000
,
0101
0000
0000
0110
0000
0110
0000
1001
0000
0000
1001
0000
,
0110
0000
0000
0110
0000
1010
0000
0000
1010
0000
1010
0000
,
0000
0010
0000
0000
0110
0000
0110
0000
0110
0000
0000
0110
,
0000
0000
0110
0000
0110
0000
0110
0000
0000
1101
0000
0000
,
1001
0000
1001
0000
0101
0000
0000
0101
0000
0011
0000
0000
,
0011
0000
1101
0000
0000
1101
0000
0000
0011
0000
0011
0000
,
0000
1100
0000
0000
0101
0000
0010
0001
0100
1001
0000
0000
,
0001
0110
0000
1000
0001
0000
1001
0000
0000
1001
0000
0000
,
0110
0000
0110
0000
0000
1001
0000
1001
0000
0000
0110
0000
,
0000
0110
0000
0001
1000
0000
0000
1001
0000
0000
1010
0000
,
0000
1101
0000
0000
0101
0000
0000
0011
0000
0011
0000
0000
,
0110
0000
0000
1000
0000
0001
0010
0000
0100
1000
0000
0001
,
0000
0010
1100
0000
0000
0011
0000
1100
0000
0000
0001
0110
,
1000
0000
0000
0001
0010
1100
0000
0000
0011
1100
0000
0001
,
0100
1000
0000
0001
0010
0100
0000
1000
0100
0000
0000
0010
,
0000
0001
0010
0000
0100
1001
0000
0100
0000
0000
0010
0001
,
0000
0010
0000
1100
0001
0000
0100
0000
0000
0010
0000
0001
,
0010
0000
0000
1100
0000
0100
0000
0010
0001
0000
1000
0001
,
0000
1000
0000
0001
0000
0000
0100
0000
2002
0000
0000
0000
,
0000
0000
0000
0000
3003
0000
0000
0000
2002
0000
0000
0000
,
0000
0000
0000
0000
0003
3000
1001
0000
0000
0000
1001
0000
,
0000
0000
0000
0101
0000
0000
0000
2020
0000
0000
0000
3030
,
0101
0000
0000
0000
0000
2020
0000
0000
0000
3030
0110
0000
,
0000
0000
2002
0000
0000
0000
0000
3003
0220
0000
0000
0000
,
0000
0000
0000
0330
2020
0000
0000
0000
0000
0030
3202
0000
,
0000
0000
0000
0303
0220
0000
0000
0000
0000
2330
0002
0000
,
0000
0000
3003
0220
0000
0000
0000
0330
0000
2020
0000
0000
,
0000
3030
0202
0000
0000
0000
0303
0120
0200
0000
0000
0300
,
2030
0001
0000
0000
0000
3000
0100
0000
0000
0120
0000
0000
,
0000
0032
0000
0000
0000
0020
0003
0000
0000
0000
0200
0030
,
0000
0000
0000
0000
2000
0000
0000
0300
0100
0002
3000
0000
,
0000
0000
0003
0200
0000
0000
0000
0320
0000
0000
0000
2030
,
0000
0000
0002
3000
0000
0000
0200
0003
0000
0000
0320
0000
,
0000
0000
1030
0000
0000
0002
0000
0000
0010
0003
0000
0100
,
1000
0000
0100
0001
0000
0010
0100
0000
1000
0000
0001
0000
,
1000
0000
0100
0000
0000
0010
0002
0000
0010
0000
0100
1003
,
0000
0100
0000
0001
0000
0010
0000
0100
0000
1000
0000
0100
,
1000
0000
0100
0000
0010
0002
0000
0110
0000
1003
0001
0000
,
1001
0000
0000
0000
0110
0000
0000
0000
0001
0000
0010
0000
,
0000
2100
0000
0000
0000
0000
0100
3000
2000
0010
0000
0000
,
0000
0001
0000
0000
0000
0002
3000
0000
0010
0100
0000
0000
,
0000
1000
0000
0000
0000
1000
0000
0000
0000
0100
0000
0000
,
1000
0100
0000
0000
0100
0000
0000
0000
1000
0100
0000
0000
,
0100
0000
0003
0000
0000
2000
0000
0000
0100
0000
0000
0000
,
0010
0000
0001
0100
0000
0000
0100
0000
0000
0000
0010
0000
,
0000
0100
0001
0000
0000
0010
0000
0000
0000
0000
0101
0000
,
0000
0000
3002
0010
0000
0000
0000
0000
1000
0000
0000
0100
,
0000
0000
0000
0000
0000
0000
0000
0100
0000
0000
0000
1000
,
0000
0000
0100
0000
1000
0000
0003
0102
0000
0000
0000
1100
,
0000
0000
0000
0100
0000
0003
0000
0010
0100
0000
0000
2000
,
0000
0000
0000
0200
3000
0000
0000
0000
0010
0000
0000
0000
,
0001
1000
0000
0000
1000
0000
0000
0000
1001
0000
0000
0000
,
0000
0010
0000
0000
0000
1001
0000
0000
0000
0010
0000
0000
,
0000
1000
0001
0000
0000
0000
0300
0020
0000
0000
0000
1000
,
0000
0000
0000
0000
0101
0000
0000
0000
0000
1000
0000
0000
,
0000
0101
0000
0000
0000
0000
0000
1000
0000
0000
0101
0000
,
0000
0000
1000
0000
0000
0030
0000
0101
0000
0000
0000
0002
,
0020
0000
0000
2003
0030
0000
0002
0000
0000
0000
0100
0000
,
0000
0000
0000
0000
0000
0100
0000
0000
0000
0100
0000
0000
,
0103
0000
0000
0000
0100
0000
0000
0000
0010
0000
0000
0000
,
0001
0000
0000
0010
0000
0000
0000
0100
0000
0000
3000
0102
,
0000
0000
0000
0000
0000
0000
1000
0000
0003
0000
0001
1000
,
0000
0001
0100
1000
0000
0011
0000
1000
0000
0111
0000
1000
,
0111
0000
1000
0000
0000
0000
0001
1000
0000
0000
1001
0000
,
0000
0001
0000
0100
1000
0001
0000
1000
0001
1000
0001
0000
,
1000
0000
0011
1100
0000
0101
0000
1000
0001
0000
1000
0001
,
0000
0011
0100
1000
0000
0011
0100
1000
0000
0101
0000
1000
,
0101
0000
1000
0000
0101
0000
1000
0000
0101
1000
0000
0111
,
1000
0000
0111
0000
1000
0000
0101
1000
0000
0011
0100
1000
,
0000
0101
0000
1000
0000
0101
1000
0000
0101
0000
0000
0011
,
0100
1000
0000
0100
1000
0000
0102
0000
0000
0010
0103
0000
,
2000
0100
0000
0100
3000
0000
0011
0000
0000
0000
0111
1000
,
0000
0101
0000
1000
0000
0101
0000
1000
0011
0100
1000
0000
,
0001
0100
1000
0000
0011
0100
1000
0000
0101
0000
1000
0101
,
0000
1000
0001
0100
0000
1000
0101
0000
1000
0101
0000
1000
,
0101
0000
1000
0010
0101
0000
1000
0011
0100
0000
0010
0101
,
0000
1000
0100
0000
0000
0001
0010
0100
0000
1000
0100
0000
,
0000
0100
0000
0001
0010
0000
0000
1100
0000
0001
0100
0000
,
2000
0001
0000
3000
0000
0000
1100
0001
0000
1110
0001
0000
,
0010
0000
0001
0000
0110
0000
0001
0010
1000
0000
0001
0010
,
0000
1101
0000
0010
1100
0001
0000
0000
1100
0001
0000
1100
,
0001
0000
0000
0210
0000
0000
0000
0301
0010
0000
0002
0000
,
0000
0010
0003
2000
0000
0100
0000
3000
0001
0000
0010
0200
,
0000
0001
1000
0000
0301
0000
1010
0001
0000
0100
1000
0001
,
0100
1000
0001
0010
0100
0000
0001
0000
1000
0000
0101
1000
,
0000
0010
0101
0000
1000
0000
0011
0100
1000
0000
0102
0000
,
0000
0000
0110
0000
1003
0000
0100
0000
0010
0000
0000
0011
,
0000
0000
0100
1000
0000
0100
0000
0001
0010
0000
1000
0000
,
0011
0000
1000
0001
0100
1000
0000
0101
0000
1000
0001
0100
,
0000
1000
0001
0100
0000
0111
0000
0000
1000
0101
0000
1000
,
0000
0011
0000
0100
1000
0000
0001
0100
0000
1000
0000
0001
,
0100
0000
1000
0000
0011
0100
0000
1000
0001
0110
0000
0000
,
1000
0101
0000
0000
1000
0101
0000
0000
0001
0100
1000
0000
,
0101
0000
0000
0010
0100
1000
0000
0100
0001
0000
0010
0100
,
0000
0000
0010
0000
0010
0000
1100
0000
0000
0001
0010
0000
,
0010
0001
0100
1000
0010
0000
0000
0010
0000
0010
0000
1100
,
0000
0000
0010
0101
0000
0011
0000
1000
0100
0000
0000
0000
,
0011
0000
0000
0010
0100
1000
0000
0100
0001
0000
1000
0000
,
0000
1001
0000
0000
0000
0000
0110
0000
0000
1010
0000
0000
,
0100
1001
0000
0000
0000
0101
0000
0000
0000
0012
0000
0000
,
0000
0003
1001
0000
0000
0000
0000
0110
0000
0000
0000
1001
,
0000
0000
0000
1010
0000
0000
0000
1100
0000
0000
0000
0101
,
0000
0000
0000
0011
0000
0000
0020
0100
0000
0000
0000
1031
,
0000
0000
0000
0200
0020
0000
0000
0000
0000
0330
2020
0000
,
0000
0000
3030
0000
1202
0000
0000
0000
0000
0000
0303
0220
,
0001
0000
0000
0000
0000
2330
0001
0000
0000
0000
3000
0220
,
0000
0000
0000
0300
0030
0001
0010
0000
0010
0000
0000
0000
,
0010
0000
0000
0010
0000
0010
0000
0000
0010
0000
1000
0000
,
0100
0000
0000
0010
0000
0000
0000
0010
0000
0000
0000
0010
,
0000
0000
0000
0000
0010
0000
0010
0000
0010
0000
0000
0010
,
0000
0000
0010
0000
0010
0000
0000
0010
0000
0000
0010
0000
,
1000
0100
0000
0000
0010
0000
0001
0010
0000
0000
0100
1000
,
0000
0000
0001
0000
1000
0000
0000
0000
0001
0000
0100
0000
,
0001
0000
0000
0010
0000
0000
0100
1000
0000
0100
0000
0010
,
0000
0001
0010
0000
0000
0100
1000
0000
0010
0000
0000
0000
,
1001
0000
0000
0000
0000
1010
0000
0000
0000
0000
0000
0101
,
0000
0011
0000
0000
0000
0000
0000
1010
0000
0000
0000
0101
,
0000
0000
0101
0000
0000
0000
0110
0000
0000
0110
0000
0000
,
1000
0000
0000
0000
0100
0000
0000
0010
0000
0001
0010
0000
,
0000
0000
0100
0000
0000
1000
0000
0001
0000
0000
0100
0000
,
0000
0001
0000
0000
1000
0001
0000
1000
0001
0000
2002
0000
,
0000
0000
0000
0000
0000
0000
0000
0000
0100
0000
0000
0000
,
0100
0000
0000
0000
0000
0100
0000
0000
0100
0000
0000
0000
,
0000
0000
0100
0000
0000
0000
0000
0000
0100
0000
0000
0000
,
0000
0100
0000
0000
0100
0000
0000
0000
0000
0100
0000
0000
,
0000
0100
0000
0000
0000
0100
0000
0000
0000
0100
0000
0200
,
0000
0000
0000
0000
,
0000
0000
0300
0100
0000
0000
0000
0200
0000
0000
0000
0000
,
0000
0000
0000
0000
0303
0101
0000
0000
0002
0100
0000
0000
,
0100
0000
0200
0000
0000
0000
0000
0000
0000
0000
0000
0000
,
0000
0000
0000
0000
,
0000
0000
0000
0000
0000
0000
0000
0000
0000
0000
0000
3303
;

//---------------dance-single - Copied from----------------
#NOTES:
     dance-single:
     Copied from:
     Beginner:
     5:
     0.274,0.343,0.050,0.085,0.593,354.000,10.000,17.000,0.000,3.000:
0000
0000
0000
0000
0000
0100
0000
0000
0000
0000
0000
0000
,
0000
0000
0000
0000
0000
0000
0010
0000
0010
0000
0000
0000
,
0000
0000
0000
0000
0000
0000
0000
0000
1000
0000
1000
0000
,
0000
0000
0000
0000
0000
0000
0000
0000
0000
0000
0000
0001
,
0000
0001
0000
0000
0000
0000
0000
0000
0000
0000
0000
0000
,
0000
0000
0000
0000
0000
0010
0000
0000
0010
0000
0000
0000
,
0000
1000
0000
0000
0000
0100
0000
0000
0000
0010
0000
0000
,
0000
0100
0000
0000
0010
0000
0000
0000
0000
0000
0000
0000
,
1000
0000
0000
0000
0000
0000
0000
0000
1000
0000
0000
0000
,
0100
0000
0000
0000
0000
0000
0000
0000
0100
0000
0000
0000
,
0000
0000
0000
0000
0000
0010
0000
0000
0000
0000
0000
0000
,
0000
1000
0000
0000
0000
0000
0000
0000
0000
0000
0001
0000
,
0000
0000
0000
0000
0000
0000
0000
0100
0000
0000
0000
0000
,
0000
0000
0000
0000
0010
0000
0000
0000
0000
0000
0000
0000
,
0000
0010
0000
0000
0000
0000
0000
0000
0000
0000
0010
0000
,
0000
0000
0000
0000
0000
0000
0000
0010
0000
0000
0000
0000
,
0000
0000
0000
0000
0000
0000
1001
0000
0000
0000
0000
0100
,
0000
0000
0000
0000
0000
0010
0000
0000
0000
0000
0000
0100
,
0000
0000
0000
0000
0000
0010
0000
0000
0000
0000
0000
1000
,
0000
0000
0001
0000
,
0000
0000
0100
0000
0000
0000
0000
0000
0000
0000
0000
0010
,
0000
0000
0000
0100
0000
0000
0000
0100
0000
0000
0000
0000
,
0000
0010
0000
0000
0000
0000
0000
0000
1000
0000
0000
0000
,
0000
0001
0000
0000
,
0000
0100
0000
0000
0000
0000
0000
0000
0000
0100
0000
0000
,
0000
0000
0100
0000
,
0000
0010
0000
0000
0000
0000
0000
0100
0000
0000
0000
0010
,
0000
0000
0010
0000
0000
0000
0000
1000
0000
0000
0000
0000
,
0000
0000
0001
0000
0000
0000
0000
0000
0000
0100
0000
0000
,
0000
0000
0000
0000
0000
0010
0000
0000
0000
0000
0000
0000
,
0000
0010
0000
0000
0000
0000
0000
0000
0000
0010
0000
0000
,
0000
0000
0000
0000
0100
0000
0000
0000
0100
0000
0000
0000
,
0100
0000
0000
0000
0100
0000
0000
0000
0100
0000
0000
0000
,
0000
1000
0000
0000
0000
0000
0001
0000
0000
0100
0000
0000
,
0000
0200
0000
0000
0000
0000
0000
0000
0000
0000
0000
0000
,
0000
0000
0000
0000
,
0000
0000
0000
0000
,
0000
0000
0000
0000
,
0300
2002
0000
0000
0000
0000
0000
0000
0000
0000
0000
0000
,
0000
0000
0000
0000
0000
0000
0000
3003
0000
0000
0000
0100
,
0000
0000
0000
0010
0000
0000
0000
1000
0000
0000
0000
0100
,
0000
0000
0000
0000
0010
0000
0000
0100
0000
0000
0000
0010
,
0000
0000
0000
0000
0010
0000
0000
0000
0010
0000
0000
0000
,
0010
0000
0000
0000
0010
0000
0000
0000
1000
0000
0000
0000
,
0100
0000
0000
0000
0010
0000
0000
0000
0100
0000
0000
0000
,
0010
0000
0000
0000
0100
0000
0000
0000
0000
0000
0000
0000
,
0010
0000
0000
0000
0000
1000
0000
0100
0000
0010
0000
0000
,
0000
0100
0000
0000
,
0010
0000
0000
0000
1000
0000
0000
0000
0000
0100
0000
0000
,
0000
0000
1000
1000
,
0000
0000
1000
0000
0000
0000
0000
0000
0000
1010
0000
0000
,
0000
0000
0000
0000
0000
0000
0000
0100
0000
0000
0000
1010
,
0000
0100
0000
0000
,
0000
0000
0000
0000
0000
0000
1000
0000
0000
0000
0100
0000
,
0000
0000
0010
0000
0000
0000
0000
0000
0000
0000
0000
0100
,
0000
0000
0000
0010
0000
0000
0000
0100
0000
0000
0000
0000
,
0000
0000
0000
0010
0000
0000
0000
0010
0000
0000
0000
0010
,
0000
0000
0000
0000
0000
0000
0000
0000
1000
0000
0000
0000
,
1000
0000
0000
0000
1000
0000
0000
0000
0000
0000
0000
0000
,
0000
0001
0000
0000
0000
0100
0000
0000
0000
0001
0000
0000
,
0000
0000
0010
0000
,
0000
0000
0010
0000
0000
0000
0000
0000
0000
0000
1000
0000
,
0000
0000
0000
0000
0000
0000
0000
0100
0000
0000
0000
1000
,
0000
0000
0000
0010
0000
0000
0000
0100
0000
0000
0000
0000
,
0000
0000
0010
0000
,
0000
0000
0000
1000
0000
0000
0000
0100
0000
0000
0000
0010
,
0000
0000
0000
0100
0000
0000
0000
0010
0000
0000
0000
0000
,
0000
1000
0000
0000
,
0000
0001
0000
0000
0100
0000
0000
0000
0010
0000
0000
0000
,
0000
0000
0000
0000
0000
0000
0000
0000
0000
0000
0000
1000
,
0000
0000
0000
0100
0000
0000
0000
0010
0000
0000
0000
0000
,
0100
0000
0000
0000
0000
0000
0010
0000
0000
0000
0100
0000
,
0000
0000
0100
0000
0000
0100
0000
0000
0000
1000
0000
0000
,
0000
0000
0000
0000
0000
1000
0000
0000
0000
0000
0001
0000
,
0000
0000
0000
0000
0100
0000
0000
0000
0100
0000
0000
0000
,
0100
0000
0000
0000
0100
0000
0000
0000
0100
0000
0000
0000
,
0100
0000
0000
0000
0100
0000
0000
0000
0000
0000
0000
0000
,
1000
0000
0000
0000
0000
0000
0000
0000
1000
0000
0000
0000
,
0000
0001
0000
0000
,
0000
0100
0000
0000
0000
0000
0010
0000
0000
2000
0000
0000
,
0000
0000
0000
0000
,
0200
0000
0000
0000
0000
0000
0000
0000
0000
0000
0300
0000
,
0000
0000
0000
0000
,
0000
0000
0000
0000
0000
0000
3000
0000
1001
0000
0000
0000
,
0000
0000
0000
0000
0000
0000
0000
0100
0000
0000
0000
0000
,
0000
0000
0000
0000
0100
0000
0000
0000
0000
0000
0000
0000
,
0010
0000
0000
1000
,
0000
0000
0001
0000
,
0000
0000
0000
0100
0000
0000
0000
0000
0000
0000
0000
0010
,
0000
0000
0000
0000
0000
0000
0000
0000
1000
0000
0000
0000
,
0000
0000
0000
0000
0001
0000
0000
0000
0000
0000
0000
0100
,
0000
0000
0010
0000
,
0000
1000
0000
0000
0000
0000
0000
0000
0001
0000
0000
0000
,
0000
0000
0000
0000
0000
0001
0000
0000
0000
0000
0000
0000
,
0000
0000
0000
0000
0001
0000
0000
0000
0000
0000
0000
0000
,
0010
0000
0000
0000
0000
0000
0000
0000
0000
0000
0100
0000
,
0000
0000
0000
0000
0000
0000
0000
1000
0000
0000
0000
0000
,
0000
0000
0000
0000
0000
0001
0000
0000
0000
0000
0000
0000
,
0000
0000
0100
0000
0000
0000
0000
0000
0000
0010
0000
0000
,
0000
0000
0010
0000
0000
0000
0000
0000
0000
0000
0000
0000
,
0000
1000
0000
0000
0000
0000
0000
0000
0000
0001
0000
0000
,
0000
0100
0000
0000
0010
0000
0000
0000
0000
0000
0000
0000
,
1000
0000
0000
0000
1000
0000
0000
0000
1000
0000
0000
0000
,
1001
0000
0000
0000
0100
0000
0000
0000
0000
0000
0000
0000
,
0010
0000
0000
0000
0000
0000
0000
0000
0000
0000
0000
0100
,
0000
0000
0000
0000
0000
0110
0000
0000
0000
0000
1000
0000
,
0000
0000
0000
0000
0000
0100
0000
0000
0000
0000
0000
0000
,
0100
0000
0000
0010
,
0000
0000
0000
0000
0000
1001
0000
0000
0000
0000
0000
0000
,
0000
0100
0000
0000
0000
0000
0000
0000
0000
0100
0000
0000
,
0000
0000
1000
0000
,
0000
0000
0010
0000
0000
0000
0000
0000
0000
0000
0100
0000
,
0000
0000
0010
0000
,
0000
0001
0000
0000
,
0000
0000
0000
0000
0010
0000
0000
0000
0100
0000
0000
0000
,
0000
0000
0000
0010
0000
0000
0000
0000
0000
0000
0000
1000
,
0000
0000
0000
0000
0100
0000
0000
0000
0010
0000
0000
0000
,
0000
0000
0000
0000
0200
0000
0000
0000
0000
0000
0300
0000
,
0020
0000
0000
0000
0000
0000
0030
0000
0200
0000
0000
0000
,
0000
0000
0300
0000
0000
2000
0000
0000
0000
0000
3000
0000
,
0000
0200
0000
0000
0000
0000
0000
0300
0000
0000
2000
0000
,
0000
0000
0000
3000
0000
0000
0200
0000
0000
0000
0000
0300
,
0000
0000
2002
0000
0000
0000
0000
0000
0000
0000
0000
0000
,
0000
0000
0000
0000
,
0000
0000
0000
0000
,
0000
0000
0000
0000
0000
0000
0000
0000
0000
0000
0100
0000
,
0000
0000
0000
0000
0100
0000
0000
0000
0000
0000
0000
0100
,
0000
0000
0000
0000
,
0000
0000
0000
0000
3003
0000
0000
0000
0000
0000
0000
0000
,
0100
0000
0000
0000
0010
0000
0000
0000
0100
0000
0000
0000
,
0010
0000
0000
0000
0000
1000
0000
0000
0000
0100
0000
0000
,
0000
0000
0010
0000
0000
0000
0001
0000
0000
0100
0000
0000
,
0000
0001
0000
0000
0000
0000
0100
0000
0000
0001
0000
0000
,
0000
0000
0010
0000
0000
0000
0100
0000
0000
0000
0010
0000
,
0000
0000
0100
0000
0000
0020
0000
0000
0000
0000
0000
0000
,
0000
0000
0030
0000
0000
0000
0000
0000
0010
0000
0000
0020
,
0000
0000
0000
0000
0000
0000
0000
0000
0000
0000
0030
0000
,
0000
0000
1000
0000
0000
0000
0001
0000
0000
0000
0000
0000
,
0000
0000
0000
0000
0000
0000
0100
0000
0000
0000
0100
0000
,
0000
0000
0100
0000
0000
0000
0100
0000
0000
0000
0000
0000
,
0000
0000
0000
0000
0000
0000
0000
0010
0000
0000
0000
1000
,
0000
0000
0010
0000
0000
1000
0000
0000
0000
0000
0000
0000
,
0000
0000
0000
0000
0000
0000
0000
1000
0000
0000
0100
0000
,
0000
0010
0000
0000
0000
0001
0000
0000
0000
0000
0000
0100
,
0000
0000
0000
0000
0000
0001
0000
0000
0000
0010
0000
0000
,
0000
0000
0001
0000
0000
0000
0001
0000
0000
0000
0001
0000
,
0000
0000
0001
0000
0000
0000
0001
0000
0000
0000
0000
0010
,
0000
0001
0000
0000
,
0000
0000
0000
0010
0000
0000
0000
1001
0000
0000
0000
0100
,
0000
0000
0000
0000
0000
0000
0000
0010
0000
0000
0000
0000
,
0000
0000
0000
0100
0000
0000
0000
0010
0000
0000
0000
0200
,
0000
0000
0000
0000
0000
0000
0000
0000
0300
0000
0010
0000
,
0000
0000
0010
0000
0010
0000
0000
0000
0000
0000
0000
0000
,
0000
0000
0000
0000
0000
0000
0000
1000
0000
0000
0000
0001
,
0000
0000
0000
0100
0000
0000
0000
0010
0000
0000
0000
0000
,
1000
0000
0000
0000
1000
0000
0000
0000
1000
0000
0000
0000
,
1000
0000
0000
0000
0000
0001
0000
0000
0000
0000
0000
0000
,
0000
0000
0000
0100
0000
0000
0001
0000
0000
0000
0010
0000
,
0000
0000
0000
0000
,
0100
0000
0000
0000
0000
0010
0000
0000
0000
0100
0000
0000
,
0000
1000
0000
0000
0000
0000
0000
0000
0000
0000
1000
0000
,
0000
0000
0000
0000
0000
0000
0000
0100
0000
0000
0000
0000
,
0010
0000
0000
0100
,
0000
0000
0000
0000
0000
0000
0000
0000
0010
0000
0000
0000
,
0000
0010
0000
0000
0000
0000
0000
0000
0000
0000
1000
0000
,
0000
0000
1000
0000
0000
0000
0000
0000
0000
0000
0000
0000
,
0000
0001
0000
0000
0000
0001
0000
0000
0000
0000
0000
0000
,
0000
0000
0000
0000
0100
0000
0000
0000
0100
0000
0000
0000
,
0000
0000
0000
0000
0000
0000
0000
0000
0010
0000
0000
0000
,
0010
0000
0000
0000
,
1000
0000
0000
0000
1000
0000
0000
0000
1000
0000
0000
0000
,
0000
0000
0000
0000
0100
0000
0000
0000
0100
0000
0000
0000
,
0100
0000
0000
0000
0000
0000
0000
0000
0000
0000
0000
0010
,
0000
0000
0000
0000
0010
0000
0000
0000
0010
0000
0000
0000
,
1000
0000
0000
0000
0000
0001
0000
0100
0000
0000
0000
0000
,
0000
0000
0000
0001
0000
0000
0000
0000
0000
0000
0000
0010
,
0000
0000
0001
0000
,
0000
0010
0000
0100
,
0000
0000
0000
0000
1000
0000
0000
0000
0000
0000
0000
0000
,
0000
0000
0010
0000
0000
0000
0000
0000
0000
0000
0000
0100
,
0000
0000
0000
0000
0000
0001
0000
0000
0000
0000
0000
1000
,
0000
0001
0000
0000
0000
0000
0000
0000
0000
0100
0000
0000
,
0000
0000
0000
0010
0000
0000
0000
0000
0100
0000
0000
0000
,
0000
0100
0000
0000
0000
0000
0100
0000
0000
0000
0000
0000
,
0000
0010
0000
0000
0000
0000
0000
0010
0000
0000
0000
0000
,
0000
0010
0000
0000
0000
0000
1000
0000
0000
0000
0000
0001
,
0000
0000
0000
0000
0000
0000
0000
0000
0100
0000
0000
0000
,
0000
0010
0000
0000
0000
0100
0000
0000
0010
0000
0000
0000
,
0000
0000
0000
1000
0000
0000
0000
0000
0001
0000
0000
0000
,
0100
0000
0000
0010
0000
0000
0000
0000
0001
0000
0000
0000
,
0000
0010
0000
0000
0000
0000
0000
0000
0100
0000
0000
0000
,
0010
0000
0000
0000
0000
0000
0100
0000
0000
0100
0000
0100
,
0000
0000
0100
0000
0000
0000
0010
0000
0000
0000
0000
0000
,
0000
0000
0000
0000
0010
0000
0000
0000
0010
0000
0000
0000
,
1000
0001
0000
0000
,
0100
0000
0000
0000
;

//---------------dance-single - Copied from Copied f----------------
#NOTES:
     dance-single:
     Copied from Copied f:
     Easy:
     6:
     0.325,0.392,0.075,0.020,0.731,433.000,15.000,4.000,0.000,18.000:
0000
0000
0000
0000
0000
0000
1000
0000
0000
0000
0000
1000
,
0000
0000
0000
0000
0000
0100
0000
0100
0000
0000
0000
0000
,
0000
0000
0000
0000
0000
0000
0000
0000
0000
0010
0000
0010
,
0000
0000
0000
0000
0000
0000
0000
0000
0000
0000
0000
1000
,
0000
1000
0000
0000
0000
0000
0000
0000
0000
0000
0000
0000
,
0000
0000
0000
0001
0000
0001
0000
0000
0000
0000
0000
0000
,
0000
0100
0000
0000
0000
0000
0100
0000
0000
0000
0000
0100
,
0000
0000
0010
0000
,
1000
0000
0000
0000
0001
0000
0000
0000
0000
0100
0000
0000
,
0000
0000
0000
0010
0000
0000
0000
0000
0000
0000
0000
0010
,
0000
0000
0000
0000
0000
1000
0000
0000
0000
0000
0001
0000
,
0000
0000
0100
0000
0000
0000
0000
0000
0000
0010
0000
0000
,
0000
0010
0000
0000
0000
0000
0000
0000
0000
1000
0000
0000
,
0000
0000
0001
0000
0000
0100
0000
0000
0000
0000
0000
0000
,
0000
0010
0000
0000
0000
0000
0010
0000
0000
0000
0010
0000
,
0000
0000
0010
0000
0000
0000
0010
0000
0000
0000
0000
0010
,
0000
0000
0000
0010
0000
0000
0000
0000
1001
0000
0000
0000
,
0100
0000
0000
0000
0000
0010
0000
0000
0000
0000
0000
1000
,
0000
0000
0000
0000
0000
0100
0000
0000
0000
0000
0010
0000
,
0000
0000
0000
0000
0000
0001
0000
0000
0000
0000
0000
0100
,
0000
0000
0000
0000
0000
0001
0000
0000
0000
0000
0000
0010
,
0000
0000
0000
1000
0000
0000
0000
0000
1000
0000
0000
0000
,
0100
0000
0010
0000
,
0100
0000
0000
0000
0000
0001
0000
0000
0000
0000
0000
1000
,
0000
0000
0000
0000
0010
0000
0000
0010
0000
0000
0000
0000
,
1000
0000
0000
0100
0000
0010
0000
0000
0000
0000
0001
0000
,
0010
0000
0100
0000
0000
0000
0000
0000
0010
0000
0100
0000
,
0000
0010
0100
0000
0010
0000
0000
0000
0000
1000
0000
0000
,
0000
0000
0000
1000
0000
0000
0000
0000
0000
0000
1000
0000
,
0000
0000
0000
0000
0100
0000
0000
0000
0000
0000
0010
0000
,
0000
0000
0000
0100
0000
0000
0000
0000
0010
0000
0000
0000
,
2002
0000
0000
0000
,
0100
0000
0000
0000
0000
0000
0000
0000
0100
0000
0000
0000
,
0000
0000
0000
0000
0000
0100
0000
0000
0000
0000
0000
0000
,
0000
0100
0000
0000
0000
0100
0000
0000
0000
0100
0000
0000
,
0000
0100
0000
0000
0000
0100
0000
0000
0000
0100
0000
0000
,
0000
0100
0000
0000
0000
0000
0000
0000
0000
0100
0000
0000
,
0000
0000
0000
0000
0000
0000
0000
0000
0003
0000
0000
3000
,
0000
0000
0000
0100
0000
0100
0000
0100
0000
0100
0000
0100
,
0000
0000
0000
1000
0000
0000
0000
0100
0000
0000
0000
0010
,
0000
0000
0000
0010
0000
0000
0010
0000
0000
0000
1000
0000
,
0000
0000
0100
0000
0000
0000
0010
0000
0000
0000
0100
0000
,
0000
0000
0010
0000
0000
0000
0000
1000
0000
0000
0000
0000
,
0000
0000
1000
0000
0000
0000
0000
1000
0000
0000
0000
0000
,
0100
0000
0000
0000
0010
0000
0000
0001
0000
0000
0000
0000
,
0000
0000
0100
0000
0000
0000
0000
0000
0000
0000
0001
0000
,
0010
0000
0100
0000
0000
0000
0000
0001
0000
0010
0100
0000
,
0000
0000
0000
0000
0000
0010
0000
0000
0100
0000
0000
0000
,
0000
1000
0100
0000
0000
0010
0000
0000
0000
0000
1000
0000
,
0100
0000
0010
0000
0000
0000
0000
0100
0000
0000
0010
0000
,
0000
0100
0000
0000
0000
0000
0000
0000
0000
0000
0010
0000
,
0000
0000
0000
0000
0000
1000
0000
0000
0000
0001
0000
0000
,
0000
0000
0100
0000
0000
0000
0000
0000
0000
0000
0000
0000
,
0000
0000
0000
0000
0000
0000
0001
0000
0010
0000
0000
0000
,
0100
0000
0000
1000
0000
0000
0000
0100
0000
0000
0000
0010
,
0000
0000
0000
0100
0000
0000
0000
0010
0000
0000
0000
0100
,
0000
0000
0000
0010
0000
0000
0000
0000
0000
0000
0000
0010
,
0000
0000
0000
0000
0010
0000
0000
0000
0010
0000
0000
0000
,
0000
0000
0000
0000
,
1000
0000
0000
0000
0001
0000
0000
0000
0100
0000
0000
0000
,
0000
0000
0000
0000
0000
0010
0000
0000
0000
0010
0000
0000
,
0000
0010
0000
0000
0000
0000
0000
0000
0000
0000
0010
0000
,
0000
0000
0000
0000
0000
0000
0010
0000
0000
0000
0010
0000
,
0000
0000
0100
0000
0000
0000
0010
0000
0000
0000
0000
0100
,
0000
0000
0000
0000
0010
0000
0000
0000
0000
0010
0000
0000
,
0000
0000
0000
0000
0010
0000
0000
0000
0000
0000
0000
0010
,
0000
0000
1000
0000
,
0000
0000
0001
0000
0000
0000
0000
0000
0000
0100
0000
0000
,
0000
0000
0000
0000
0000
0010
0000
0000
0000
0000
0010
0000
,
0000
0000
0010
0000
0000
0000
0010
0000
0000
0000
0000
0000
,
0000
0000
1000
0000
0000
0000
1000
0000
0000
0000
1000
0000
,
0000
0000
0000
0000
0000
0001
0000
0000
0000
0001
0000
0000
,
0000
0001
0000
0000
0000
0000
0000
0000
0000
0100
0000
0000
,
0000
0100
0000
0000
0000
0100
0000
0000
0000
0000
0000
0000
,
0000
0000
0000
0010
0000
0000
0000
0010
0000
0000
0000
0010
,
0000
0000
0000
0000
0000
0000
0000
0000
1000
0000
0000
0000
,
1000
0000
0000
0000
1000
0000
0000
0000
0000
0000
0000
0000
,
0001
0000
0000
0000
0001
0000
0000
0001
0000
0000
0000
0000
,
0000
0001
0000
0000
0000
0000
0100
0000
0000
0000
0010
0000
,
0000
0000
0100
0000
0000
0000
0010
0000
0000
0000
0100
0000
,
0000
0000
1000
0000
0000
0000
1000
0000
0000
0000
1000
0000
,
0000
0000
0000
0000
0000
0100
0000
0000
0000
0000
0000
0000
,
0010
0000
0000
0000
0000
0100
0000
0000
0000
0010
0000
0000
,
0000
0100
0000
0000
0000
0000
0001
0000
0000
0000
1001
0000
,
0000
0000
0100
0000
,
0010
0000
0000
0000
0000
0000
0000
0100
0000
0000
0000
0000
,
0000
0000
0010
0000
0000
0000
0000
1000
0000
0000
0000
0100
,
0000
0000
0000
0000
0000
0000
0000
0000
0100
0000
0000
0000
,
0000
0000
0000
0000
0000
1000
0000
0000
0000
0000
0000
0000
,
0000
0000
0010
0000
0000
0000
0000
0000
0000
0100
0000
0000
,
0000
1000
0000
0100
,
0000
0000
0000
0000
0010
0000
0000
0000
0000
0000
0000
0001
,
0000
0000
0000
0000
0000
0000
0000
0100
0000
0000
0000
0000
,
0000
0000
0000
0001
0000
0000
0000
0000
0000
0000
0010
0000
,
0000
0000
0000
0000
0000
0100
0000
0000
0000
1000
0000
0000
,
0000
0010
0000
0000
0100
0000
0000
0000
0010
0000
0000
0010
,
0000
0010
0000
0010
0000
0000
1000
0000
0000
0000
1001
0000
,
0000
0000
0000
0000
0000
0100
0000
0000
0000
0000
0000
0000
,
0000
0010
0000
0000
0000
0000
0010
0000
0010
0000
0000
0000
,
0000
0010
0000
0000
1000
0000
1000
0000
0000
0000
0100
0000
,
0000
0000
0010
0000
0000
0000
0000
1000
0000
0000
0000
0100
,
0000
0000
0000
0010
0000
0000
0000
0000
0000
0000
0000
0100
,
0000
0000
0000
0000
0000
0000
0000
0000
0000
0000
0001
0000
,
0000
0000
0000
0001
0000
0000
0000
0000
0000
0000
0000
0010
,
0000
0000
0000
0000
0000
0000
0000
0100
0000
0000
0000
0000
,
0000
0000
0000
0000
0000
0010
0000
0000
0000
0000
0000
0000
,
0000
0010
0000
0000
,
0000
0010
0000
0000
0000
0000
0000
0000
0000
0010
0000
0000
,
0000
0000
0000
0000
0000
1001
0000
0000
0000
0000
0000
0000
,
0000
0100
0000
0000
0000
0000
0000
0000
0000
0100
0000
0000
,
0000
0000
0000
0000
0000
0100
0000
0000
0000
0000
0000
0000
,
0000
0000
1010
0000
0000
0000
0000
0000
0000
0000
0100
0000
,
0000
0000
0100
0000
,
0000
0000
0000
0100
0000
0000
0000
0000
0000
0000
0000
0110
,
0000
0000
0000
0000
0000
0000
0000
0000
0100
0000
0000
0000
,
0000
0000
0000
0000
0010
0000
0000
0000
0000
0000
0000
0000
,
0100
0000
0000
0000
0000
0000
0000
0000
0011
0000
0000
0000
,
0000
0000
0000
0100
0000
0000
0000
0000
0000
0000
0000
0010
,
0000
0000
0000
0000
0000
0000
0000
0000
0100
0000
0000
0000
,
0000
0000
0000
0000
0000
1100
0000
0000
0000
0000
0000
0000
,
0000
1000
0000
0000
0000
0000
0000
0000
0000
0010
0000
0000
,
0000
0000
0000
0000
0100
0000
0000
0000
0100
0000
0000
0000
,
2002
0000
0000
0000
0000
0000
0000
0000
0000
0000
0100
0000
,
0000
0000
0100
0000
,
0000
0000
0000
0100
0000
0000
0000
0000
0000
0000
0000
0100
,
0000
0000
0000
0000
0000
0000
0000
0100
0000
0000
0000
0000
,
0000
0100
0000
0000
,
0100
0000
0000
0000
0000
0000
0000
0003
3000
0000
0000
0000
,
1000
0000
1000
0000
0000
0000
0000
0000
1000
0000
0000
0000
,
1000
0100
0010
0100
,
0000
0010
0000
0000
0000
1000
0000
0000
0000
0100
0000
0000
,
0000
0010
0000
0000
0000
0001
0000
0000
0000
0100
0000
0000
,
0000
0000
0000
0000
0000
0100
0000
0000
0000
0100
0000
0000
,
0000
0000
0001
0000
0000
0010
0000
0000
0000
0001
0000
0000
,
0000
0010
0000
0000
0000
0001
0000
0000
0000
0000
0000
0000
,
0000
0000
0001
0000
0000
0000
0010
0000
0000
0100
0000
0000
,
0010
0000
0000
0000
0000
0000
0000
0000
0000
0000
0000
1000
,
0000
0010
0000
0000
0000
0000
0000
1000
0000
0000
0100
0000
,
0000
0000
0000
1000
0000
0000
0000
0000
0100
0000
0000
0000
,
0100
0000
0000
0000
0100
0000
0000
0000
0100
0000
0000
1010
,
0000
0000
0000
0000
0100
0000
0000
0000
1010
0000
0000
0000
,
0100
0000
0000
0000
1010
0000
0000
0000
0100
0000
0000
0000
,
0000
0001
0000
0000
0000
0000
0000
0000
0000
0000
0011
0000
,
0000
0000
0100
0000
0000
0010
0100
0000
0000
0000
0000
0000
,
0000
1000
0000
0000
0000
0010
0000
0000
0000
0000
0000
0000
,
0000
0000
0010
0000
0100
0000
0000
0000
0000
0000
0010
0000
,
0100
0000
0000
0000
0000
0010
0000
1000
0000
0000
0001
0000
,
0000
0000
0000
0000
,
0000
0000
0000
0001
0000
0010
0000
0000
0100
0000
0000
0001
,
0000
0010
0000
0000
0100
0000
0000
0000
0000
0000
0000
0010
,
0000
0000
0000
0000
0010
0000
0000
0000
0000
0010
0000
0000
,
0000
1000
0000
1000
,
0000
0000
0000
0000
0001
0000
0000
0000
0000
0000
0000
0100
,
0000
0000
0010
0000
,
1000
0000
0000
0000
0010
0000
0000
0000
0100
0000
0000
0000
,
0010
0000
0000
0000
0010
0000
0000
0000
0000
0010
0000
0000
,
0010
0000
0000
0000
0100
0000
0000
0000
0000
0000
0000
0000
,
0000
0000
1000
0000
0000
0000
0001
0000
0000
0000
1000
0000
,
0000
0000
0000
0000
0000
0100
0000
0000
0000
0000
0010
0000
,
0000
0000
0100
0000
0000
0000
0010
0000
0000
0000
0000
0000
,
0000
0000
0000
0000
0000
0010
0000
0000
0000
0000
0010
0000
,
0000
0000
0000
0100
0000
0000
0000
0010
0000
0000
0000
0000
,
0000
0000
0000
0100
0000
0000
0000
0000
0000
0000
0000
0100
,
0000
0000
0000
0000
0000
0100
0000
0000
0000
0000
0000
0000
,
0000
0100
0000
0000
0000
0000
0000
0000
0100
0000
0000
0000
,
0000
0010
0000
0000
,
0000
0010
0000
0000
0000
0000
0000
0000
0010
0000
0000
0000
,
0000
0010
0000
0000
,
0100
0000
0000
0000
0000
0000
0000
0000
0010
0000
0000
0000
,
0000
0000
0000
1000
0000
0000
0000
0000
0000
0000
0000
0001
,
0000
0000
0000
0000
0000
0000
0000
0000
0100
0000
0000
0000
,
0010
0000
0000
0000
0100
0000
0000
0010
0000
0000
0000
0010
,
0000
0000
0000
0010
0000
0010
0000
0010
0000
0010
0000
0000
,
0000
1000
0001
0000
0000
0000
0000
0000
0100
0000
0000
0010
,
0000
0000
0000
0000
0100
0000
0010
0000
0000
0000
0000
0000
,
0000
0100
0000
0000
0000
0000
0000
0100
0000
0000
0000
0000
,
0010
0000
0010
0000
0000
0000
0000
0100
0000
0000
0000
0000
,
0000
0000
0010
0000
0000
0000
0000
0000
1000
0000
0001
0000
,
0000
0000
1000
0000
0100
0000
0000
0010
0000
0100
0000
0000
,
0010
0000
0000
0000
0000
0100
0000
1001
0000
0000
0000
0000
,
0000
0100
0000
0000
0000
0000
0010
0000
0000
0000
0000
0000
,
0010
0000
0010
0000
0000
0000
0000
0000
1000
0000
0000
0000
,
0000
0001
0000
0000
0000
0000
0100
0000
0000
0100
0000
0000
,
0000
0010
0000
0000
0000
0000
0000
0000
0000
1000
0000
0000
,
0000
0100
0000
0010
,
0000
0000
0100
0000
0000
0000
0000
0000
0000
0000
0010
0000
,
0000
0000
0000
0000
0000
0000
0000
0010
0000
0000
0000
0000
,
0000
0010
0000
0000
0000
0000
0100
0000
0010
0000
0000
0000
,
0000
0000
0000
0000
1000
0000
0000
0000
0000
0000
0000
0000
,
0000
0000
1000
0000
0000
0000
0000
1000
0000
0000
0000
0000
,
0000
0000
0000
0000
1000
0000
0000
0000
0000
0000
0000
0001
,
0000
0000
0000
0000
0000
0000
0000
0100
0000
0000
0000
0000
,
0000
0000
0010
0000
0000
0000
0000
0100
0000
0000
0000
0000
,
0000
0000
0100
0000
0000
0000
0100
0000
0000
0000
0000
0100
,
0000
0000
0100
0000
0000
0000
0000
0000
0000
0010
0000
0000
;

//---------------dance-single - Copied from Copied f----------------
#NOTES:
     dance-single:
     Copied from Copied f:
     Medium:
     8:
     0.582,0.685,1.000,0.040,0.980,576.000,225.000,8.000,0.000,4.000:
0000
0000
0000
0000
0000
0000
0000
0100
0000
0000
0000
0100
,
0000
0000
0000
0000
0000
1010
0000
1010
0000
0000
0000
0000
,
0000
0000
0000
0000
0000
0000
0000
0000
0100
0000
0100
0000
,
0000
0000
0000
0000
0000
0000
0000
0000
0000
0000
0000
0101
,
0000
0000
0101
0000
0000
0000
0000
0000
0000
0000
0000
0000
,
0000
0000
1001
0000
0000
1001
0000
0000
0000
0000
0000
0000
,
0000
0001
0000
0000
0010
0000
0000
0000
0100
0000
0000
0010
,
0000
0000
0000
0100
0000
0000
0000
1000
0000
0000
0000
0001
,
0000
0000
0000
0100
0000
0000
0000
0000
0010
0000
0000
0000
,
0100
0000
0000
0000
0000
0010
0000
0000
0000
0100
0000
0000
,
0010
0000
0000
0000
0010
0000
0000
0000
0010
0000
0000
0000
,
0000
1000
0000
0000
0000
0100
0000
0000
0000
1000
0000
0000
,
0000
0100
0000
0000
0000
0010
0000
0000
0000
0100
0000
0000
,
0000
0010
0000
0000
0000
0100
0000
0000
0000
0010
0000
0000
,
0000
0000
1000
0000
0000
0000
0001
0000
0000
0000
0100
0000
,
0000
0000
0001
0000
0000
0000
0000
0010
0000
0000
0000
0100
,
0000
0000
0010
0000
0000
0000
0100
0000
0000
0000
1010
0000
,
0000
0000
0000
0100
0000
0000
0000
0101
0000
0000
0000
0100
,
0000
0000
0000
0010
0000
0000
0000
0010
0000
0000
0000
0010
,
0000
0000
0000
1010
0000
0000
0000
0100
0000
0000
0000
0000
,
1010
0000
0000
0000
0100
0000
0000
0000
0000
0110
0000
0000
,
1000
0000
0000
0000
0011
0000
0000
0000
0011
0000
0000
0000
,
0100
0000
0000
0000
0010
0100
0000
0000
0000
1000
0000
0000
,
1010
0000
0000
0000
0000
0100
0000
0000
0000
1010
0000
0000
,
0100
0000
0000
0000
0000
0101
0000
0000
0000
0010
0000
0000
,
0000
0101
0000
0000
0000
1001
0000
0000
0000
0100
0000
0000
,
0000
1010
0000
0000
0000
0000
0100
0000
0000
0000
1010
0000
,
0000
1010
0000
0000
0000
0000
0100
0000
0000
0000
0110
0000
,
0000
0000
1000
0000
0000
0000
0100
0000
0000
0011
0000
0000
,
0000
0100
0000
0000
0000
0110
0000
0000
0000
1001
0000
0000
,
0000
0100
0000
0000
0000
0110
0000
0000
0000
0110
0000
0000
,
0000
0110
0000
0000
0000
1000
0000
0000
0000
0000
1001
0000
,
0000
1000
0000
0000
0000
2001
0000
0000
0000
0000
0001
0000
,
0000
0000
0000
0100
0000
0000
0000
0001
0000
0000
0000
0100
,
0000
0000
0001
0000
0000
0010
0000
0000
0000
0100
0000
0000
,
0000
0000
0001
0000
0000
0000
0000
0101
0000
0000
0000
0101
,
0000
0000
0000
0000
0101
0000
0000
0000
0000
0000
0000
3000
,
0000
0000
0100
0000
0100
0000
0000
0100
0000
0000
0100
0000
,
0010
0100
0110
0000
0110
0000
0000
0110
0000
0110
0000
0000
,
0000
1000
0000
0000
0000
0100
0000
0000
0000
0001
0000
0000
,
0010
0000
0100
0000
0000
0010
0000
0100
0000
0000
0010
0000
,
0100
0000
0000
0001
0000
0010
0000
0001
0000
0000
0010
0000
,
0001
0000
0000
0010
0000
0001
0000
0010
0000
0000
0100
0000
,
0000
0010
0000
0100
0000
0000
0010
0000
0100
0000
0000
0000
,
1000
0000
0100
0000
0000
1000
0000
0000
0100
1000
0000
0100
,
0000
0000
0000
0110
0000
0000
0000
0000
1000
0000
0000
0000
,
0000
0110
0000
0000
0000
1010
0000
0000
0000
1100
0000
0000
,
0000
0110
0000
0000
0000
1001
0000
0000
0000
0110
0000
0000
,
0000
0011
0000
0000
0000
0110
0000
0000
0000
0000
1100
0000
,
0000
0000
0110
0000
0000
0000
1010
0000
0000
0000
1010
0000
,
0000
0000
1100
0000
0000
0000
1100
0000
0000
0000
0110
0000
,
0000
0000
1001
0000
0000
0000
0110
0000
0000
0000
0011
0000
,
0000
0000
0110
0000
0000
0000
1100
0000
0000
0000
0000
0110
,
0000
0000
1000
0001
0000
0000
0000
0110
0000
0000
1001
0000
,
0000
0000
1001
0000
0000
0000
0000
0011
0000
0000
0000
0110
,
0000
0000
0000
1100
0000
0000
0000
0000
0110
0000
0000
1000
,
0001
0000
0000
0000
0110
0000
0000
0000
0011
0000
0000
0000
,
0110
0000
0000
0000
1100
0000
0000
0000
0110
0000
0000
0000
,
1001
0000
0000
0000
0000
0011
0000
0000
0000
0110
0000
0000
,
0000
1100
0000
0000
0000
0110
0000
0000
0000
1001
0000
0000
,
0000
0110
0000
0000
0000
0011
0000
0000
0000
0110
0000
0000
,
0000
1100
0000
0000
0000
0000
0110
0000
0000
0000
1001
0000
,
0000
0000
0110
0000
0000
0000
0011
0000
0000
0000
0110
0000
,
0000
0000
1100
0000
0000
0000
0000
0110
0000
0000
1001
0000
,
0000
0000
0110
0000
0000
0000
0011
0000
0000
0000
0010
0100
,
0000
0000
0000
1100
0000
0000
0000
0110
0000
0000
0000
0011
,
0000
0000
0000
0110
0000
0000
0000
0011
0000
0000
0000
0101
,
0000
0000
0000
0010
0000
0000
0000
1010
0000
0000
0000
0100
,
0000
0000
0000
1010
0000
0000
0000
0000
0100
0000
0000
0000
,
1010
0000
0000
0000
0100
0001
0000
0000
0010
0000
0000
0000
,
0101
0000
0000
0000
0010
0000
0000
0000
0000
0101
0000
0000
,
0010
0000
0000
0000
0101
0000
0000
0000
0000
0011
0000
0000
,
0000
1100
0000
0000
0000
0000
0110
0000
0000
0000
1000
0001
,
0000
0000
0000
0100
0000
0000
0000
0100
0000
0000
0000
0100
,
0000
0000
0000
1010
0000
0000
0000
0100
0000
0000
0000
1010
,
0000
0000
0000
0000
0100
0000
0000
0000
0100
0000
0000
0000
,
0100
0000
0000
0000
0000
0010
0000
0000
0000
0000
0000
0000
,
0010
0000
0000
0000
0010
0000
0000
0000
0010
0000
0000
0000
,
0000
0000
0000
0000
1000
0000
0000
0000
0001
0000
0000
0000
,
0000
0100
0000
0000
0000
0000
0000
0000
0000
0000
0010
0000
,
0000
0100
0000
0000
0000
1000
0000
0000
0000
0000
0000
0000
,
0000
0000
0010
0000
0000
0000
0100
0000
0000
0010
0000
0000
,
0000
0000
0000
0000
0001
0000
0000
0010
0000
0000
0100
0000
,
0000
0000
0000
1000
0000
0000
0000
0000
0100
0000
0000
0110
,
0000
0000
1000
0100
,
0000
0000
0010
0000
0000
0000
0000
0100
0000
0000
0000
0000
,
0001
0000
0000
0000
0010
0000
0000
0000
0100
0000
0000
0000
,
0010
0000
0000
0000
0010
0000
0000
0000
0010
0000
0000
0000
,
0010
0000
0000
0000
0010
0000
0000
0000
0000
0100
0000
0000
,
0000
0010
0000
0000
0000
0100
0000
0000
0000
0010
0000
0000
,
0000
0000
0100
0000
0000
0000
1010
0000
0000
0000
0000
0100
,
0000
0000
0000
0000
1010
0000
0000
0000
0100
0000
0000
0000
,
0000
1010
0000
0000
0100
0000
0000
0000
0001
0000
0000
0000
,
0011
0000
0000
0000
0100
0000
0000
0000
0011
0000
0000
0000
,
0000
0100
0000
0000
0011
0000
0000
0000
0000
0000
0110
0000
,
0000
0100
0010
0000
0000
1001
0000
0000
0000
0000
0100
0000
,
0000
0010
0000
0000
0000
0100
0000
0100
0000
0000
0100
0000
,
0000
0000
1001
0000
0000
0000
0100
0000
0000
0000
0010
0000
,
0000
0001
0000
0000
0000
0000
0010
0000
0001
0000
0000
0000
,
0010
0000
0000
0100
0000
0010
0000
0110
0000
0000
0000
0010
,
0000
0000
1000
0000
0000
0000
0100
0000
0000
0010
0000
0010
,
0000
0000
0000
1000
0000
0000
0100
0000
0000
0000
0010
0000
,
0000
0000
0100
0000
0000
0010
0000
0000
0100
0000
0000
0000
,
1010
0000
0000
0000
0100
0000
1010
0000
0000
0000
0000
0100
,
0000
0001
0100
0000
,
0000
0000
0000
0000
0000
0000
0000
1010
0000
0000
0000
0000
,
0000
0000
0000
0000
0101
0000
0000
0000
0000
0000
0000
0000
,
0011
0000
0000
0120
,
0000
0030
0000
0000
0000
1001
0000
0000
0000
0000
0000
0000
,
0000
0000
0110
0000
0000
0000
0000
0000
0000
0000
0000
1010
,
0000
0000
0000
0000
0000
0000
0000
1100
0000
0000
0000
0000
,
0000
0000
0000
0000
0110
0000
0000
0000
0000
0000
0000
0000
,
1001
0000
0000
0000
0000
0000
0000
0001
0010
0000
0000
0000
,
0000
0000
0000
0000
0110
0000
0000
0000
0000
0000
0000
0000
,
1010
0000
0000
0000
0000
0000
0000
0000
1100
0000
0000
0000
,
0000
0000
0000
0000
0110
0010
0000
0000
0000
0000
0000
0000
,
0000
1001
0000
0000
0000
0000
0000
0000
0110
0010
0000
0000
,
0000
0000
0000
0000
0010
0000
0010
0000
0000
0000
0000
0010
,
0000
0000
0010
0000
0000
0000
0000
0000
1000
0000
1000
0000
,
0000
0000
0000
0000
0001
0000
0001
0000
0000
0000
0000
0000
,
0000
0100
0000
0100
0000
0000
0000
0000
0100
0000
0000
0100
,
0000
0000
0000
0000
0000
0110
0000
0000
0000
0000
0000
0000
,
0000
0000
1001
0000
0000
0000
0000
0000
0000
0000
0000
1010
,
0000
0000
0000
0000
0000
0000
0100
0001
0000
0000
0000
0000
,
0000
0000
0011
0000
0000
0000
0000
0000
0000
0000
0110
0000
,
0000
0000
0000
0000
0000
0000
0000
1010
0000
0000
0000
0000
,
0000
0000
0000
0110
0000
0000
0000
0000
0000
0000
0000
1001
,
0000
0000
0000
0000
0000
0110
0000
0000
0000
1000
0000
1000
,
0000
1000
0000
1000
0000
0000
0000
0001
0000
0000
0000
0100
,
0000
0000
0001
0000
0000
0010
0000
0100
0000
0000
0010
0000
,
0100
0000
0010
0000
0100
0000
0010
0000
0100
0000
0000
0001
,
0000
0010
0000
0001
0000
0000
0010
0000
0001
0000
0000
0010
,
0000
0001
0000
0000
0010
0000
0001
0000
0000
1000
0000
0000
,
0001
0000
0010
0000
0100
0000
0000
1000
0000
0100
0000
0000
,
0010
0000
0000
0100
0000
0010
0000
0100
0000
0000
0010
0000
,
0100
0010
0100
0010
,
0010
0010
0000
0000
1000
0000
0000
0100
0000
0000
0010
0000
,
0000
0000
0000
1010
0000
0000
0100
0000
0000
0000
1010
0000
,
0000
0000
0100
0000
0000
0000
1010
0000
0000
0000
0000
1100
,
0000
0000
0000
0110
0000
0000
0011
0000
0000
0000
0110
0000
,
0000
0000
0100
0000
0000
0000
0110
0000
0000
0000
0000
1010
,
0000
0000
0000
1100
0000
0000
0000
0000
0110
0000
0000
0000
,
0011
0000
0000
0000
0110
0000
0000
0000
1100
0000
0000
0000
,
0110
0000
0000
0000
1000
0100
0000
0000
0000
0110
0000
0000
,
0000
0011
0000
0000
0000
0110
0000
0000
0000
0011
0000
0000
,
0000
0110
0000
0000
0000
0000
1001
0000
0000
0000
0110
0000
,
0000
0000
1001
0000
0000
0000
0110
0000
0000
0000
1010
0000
,
0000
0000
0100
0000
0000
0000
1010
0000
0000
0000
0100
0001
,
0000
0000
0000
0010
0000
0000
0101
0000
0000
0000
0000
0010
,
0000
0000
0000
0110
0000
0000
0000
1100
0000
0000
0000
0000
,
0110
0000
0000
0000
0011
0000
0000
0000
0110
0000
0000
0000
,
0011
0000
0000
0000
0110
0000
0000
0000
0011
0000
0000
0000
,
1100
0000
0000
0000
1001
0000
0000
0000
0000
0001
0000
0000
,
0000
0101
0000
0000
0000
0011
0000
0000
0000
0010
0100
0000
,
0000
0110
0000
0000
0000
1001
0000
0000
0000
1001
0000
0000
,
0000
0110
0000
0000
0000
0011
0000
0000
0000
0110
0000
0000
,
0000
1100
0000
0000
0000
0000
0111
0000
0000
0000
0100
0000
,
0000
0000
0011
0000
0000
0000
0110
0000
0000
0000
1001
0000
,
0000
0000
0101
0000
0000
0000
0000
0011
0000
0000
0000
0110
,
0000
0000
0000
1100
0000
0000
0000
0110
0000
0000
0000
0001
,
0010
0000
0000
0100
0000
0000
0000
0110
0000
0000
0000
0000
,
1100
0000
0000
0000
0110
0000
0000
0000
0011
0000
0000
0000
,
0000
0011
0000
0000
0000
0110
0000
0000
0000
0110
0000
0000
,
0000
0000
1000
0000
0000
0000
1000
0000
0000
0000
1000
0000
,
0000
0000
1000
0000
0000
0000
0100
0000
0000
0000
0010
0000
,
0000
0000
0100
0000
0000
0000
0010
0000
0000
0000
0100
0000
,
0000
0001
0000
0000
0000
0010
0000
0000
0000
0000
0100
0000
,
0000
0000
0100
0000
0000
0000
0010
0000
0000
0000
0010
0000
,
0000
0000
0000
0100
0000
0000
0100
0000
0000
0000
0000
0010
,
0000
0000
0010
0000
0000
0000
1000
0000
0000
0000
1000
0000
,
0000
0000
0001
0000
0000
0001
0000
0000
0000
0100
0000
0000
,
0000
0100
0000
0000
0000
0010
0000
0000
0000
0010
0000
0000
,
0000
1000
0000
0000
0000
1000
0000
0000
0001
0000
0000
0100
,
0000
0000
1001
0000
0000
0000
0000
0100
0000
0000
0000
0010
,
0000
0000
0000
0000
0010
0000
0000
1010
0000
0000
0000
0000
,
0000
0100
0000
0000
0000
0000
0110
0000
0000
0000
0000
0000
,
0100
0000
0101
0000
0000
0000
0000
0001
0000
0000
0000
0000
,
0000
0010
0000
0000
0000
0000
0100
0000
0000
0010
0000
0000
,
0000
0010
0000
1000
0000
0100
0000
0010
0000
0000
0000
0000
,
0000
0100
0000
0010
0000
0100
0000
0000
0110
0000
0000
0000
,
0000
1000
0000
0000
0000
0000
0010
0000
0000
0000
0000
0010
,
0000
0000
0110
0000
0000
0000
0000
0000
1000
0000
0000
0000
,
0000
1001
0000
0000
0000
0100
0000
0000
0011
0000
0000
0000
,
0000
0000
0100
0000
0000
0000
0000
0000
0000
0010
0000
0000
,
0000
0000
0011
0000
0000
0001
0000
0000
0000
0100
0000
0000
,
0010
0000
0100
0000
0010
0000
0100
0000
0000
0010
0000
0010
,
0000
0010
0000
0000
1001
0000
0000
0000
0000
0100
0000
0000
,
0010
0000
0000
0000
0100
0000
0000
1010
0000
0000
0000
0000
,
0000
0000
0000
0100
0000
0000
0000
1010
0000
0000
0000
0000
,
0100
0000
0000
0100
0000
0000
0000
1001
0000
0000
0000
0000
,
0000
0000
0000
1001
0000
0000
0000
0000
1001
0000
2002
0000
,
0000
0000
0000
0000
3003
0000
0000
2000
0002
0000
0000
0000
,
0000
3003
0000
0000
2002
0000
0000
0000
0000
3003
0000
0000
,
0000
0000
0000
0100
0000
0000
0000
0000
0000
0000
0000
0100
,
0000
0000
0100
0000
0000
0000
0000
0000
0000
0100
0000
0000
;

//---------------dance-single - Copied from Copied f----------------
#NOTES:
     dance-single:
     Copied from Copied f:
     Hard:
     13:
     0.768,0.782,1.000,0.161,1.000,793.000,236.000,32.000,0.000,15.000:
0000
0000
1000
0000
,
0000
0000
0000
0000
0000
0000
0100
0000
0110
0000
0000
0000
,
0000
0000
0000
0000
0000
0000
0000
0000
1001
0000
1001
0000
,
0000
0000
0000
0000
0000
0000
0000
0000
0000
0000
0000
1000
,
0000
1001
0000
0000
0000
0000
0000
0000
0000
0000
0000
0000
,
0000
0100
0000
0111
0000
0000
0000
0000
0000
0000
0000
0000
,
0110
0000
0000
0000
0001
0000
0000
0010
0000
0000
0100
0000
,
0010
0000
0000
0000
0100
0000
0000
1000
0000
0000
0000
0100
,
0000
0000
0000
0010
0000
0100
0010
0000
0000
1001
0000
0000
,
0110
0000
0000
0000
1010
0000
0000
1100
0000
0000
0000
0010
,
0100
0000
0000
0101
0000
0000
0000
0001
0010
0000
0000
0000
,
0110
0000
1000
1100
,
1100
0000
0000
0000
0000
0110
0000
0000
0110
0000
0000
0000
,
1100
0000
0000
0000
1100
0000
0000
0000
1100
0000
0000
0000
,
1001
0000
0000
0000
0101
0000
0000
0000
0011
0000
0000
0000
,
0110
0000
0000
1100
0000
0000
0000
1010
0000
0000
0000
1100
,
0000
0000
1100
0000
0000
1000
0000
0000
0100
0000
0010
0000
,
0100
0000
0000
0010
0000
0000
1001
0000
0000
0100
0000
0001
,
0000
0000
0011
0000
0000
0100
0000
0000
1000
0000
0000
1010
,
0000
0000
0100
0000
0000
1000
0000
0100
0000
0110
0010
0000
,
1000
0000
0100
0000
0100
0000
0001
0000
0000
0000
1000
0000
,
0100
0000
0000
0001
0010
0000
0100
1000
0000
0001
0010
0100
,
1000
0000
0000
0000
0110
0000
0000
1000
0000
0000
0010
0000
,
0000
1010
0000
0000
0100
0000
0000
1010
0000
0000
0100
0000
,
0000
1000
0000
0000
1100
0000
0000
0000
0100
0000
0000
0101
,
0000
0000
0000
0100
0000
0001
0000
0000
0010
0000
0000
0011
,
0000
0000
0000
0010
0000
1000
0000
0000
0000
0001
0010
0100
,
1000
0000
0000
0011
0100
1000
0000
0000
0000
0010
0100
0000
,
0000
0010
0000
0000
1000
0010
0000
0000
1010
0000
0000
0000
,
1100
0000
0000
0000
1101
0000
0000
0101
0000
0000
0000
0011
,
0000
0000
0000
0110
0000
0000
1100
0000
0000
0000
0110
0000
,
0000
1100
0000
0000
0000
0011
0100
0000
0000
0101
0000
0000
,
0101
0101
0101
0100
,
0000
0101
0000
0000
0000
0101
0000
0000
1001
0000
0000
0000
,
0000
1001
0000
0000
1001
0000
0000
0000
2002
0000
0000
0000
,
0000
0000
0000
0100
0003
0002
0100
0000
0000
0100
0000
0000
,
0000
0100
0000
0000
0000
0100
0003
0000
0000
0001
0000
0010
,
0000
0000
0100
0000
0010
0000
0010
3000
1000
0010
0000
1010
,
0000
1000
0000
0000
1001
1001
0000
0000
1001
0000
0000
0000
,
0001
0000
1000
0000
0000
0000
0001
0000
0000
0001
0010
0000
,
0100
0000
1000
0000
0100
0000
0010
0000
0001
0010
0000
0100
,
0000
1000
0100
0000
0010
0000
0000
0011
0000
0000
0100
0000
,
1000
0100
0000
0010
0000
0000
0011
0000
0100
0000
1000
0100
,
0000
0000
0010
0000
0100
0000
0010
0100
0000
0000
0010
1000
,
0000
0001
0000
1000
0000
0001
0000
1000
0000
0001
1000
0000
,
0001
0000
1000
0000
0001
0000
0010
0000
0001
0000
0010
0000
,
0001
0010
0000
0001
0010
0000
1000
0000
0100
0000
1000
0000
,
0100
0000
1000
0010
0000
0100
0000
0010
0000
0100
1000
0000
,
0001
0010
0000
0100
0000
1000
0100
0000
0000
0010
0000
0001
,
0010
0000
0100
0000
1000
0100
0000
0010
0000
0001
0010
0000
,
0100
0000
1000
0100
0000
0010
0000
0000
0011
0000
0100
1000
,
0000
0001
0000
0100
0000
0010
0000
0100
0000
0000
0110
0000
,
0000
1001
0000
1001
0000
0000
0000
0100
0000
0101
0000
0000
,
0010
0000
0001
0000
0100
0000
0000
0000
0011
0000
0000
0110
,
0000
0000
0000
1100
0000
0000
0000
0110
0000
0000
1000
0000
,
0000
0000
0010
0000
0000
0100
0010
0000
0100
0000
0000
0110
,
0000
0100
0010
0000
1001
0000
0000
0000
0101
0000
0000
0010
,
0000
0100
0000
1000
0000
0100
0010
0000
0001
0000
0000
0000
,
0100
0000
0010
0000
0000
0100
0000
0010
0000
0000
0000
0001
,
0010
0100
1000
0000
0001
0110
0000
0000
0000
0111
1000
0000
,
0000
0000
0000
0000
0110
0000
0000
0000
0100
0000
0000
0010
,
0100
0000
0000
0000
1001
0000
0000
0100
0000
0000
0001
0000
,
0000
0000
0100
0000
0000
0010
0000
0100
0000
1000
0001
0000
,
0010
0100
0000
1000
0001
0000
0110
1000
0000
0000
0100
0000
,
0000
0010
0000
0011
0000
0000
0100
1000
0000
0100
0000
0000
,
0010
0000
0011
0000
0000
0100
1000
0000
0100
0000
0010
0000
,
0001
0000
0100
0000
0000
1000
0000
0100
0000
0010
0000
0001
,
0010
0000
0100
0000
1000
0100
0000
0000
0010
0000
0001
0010
,
0000
0100
0000
1000
0000
0100
0000
0010
0000
0001
0010
0000
,
0100
0000
0000
0010
0000
0100
0000
0010
0000
0100
0000
0000
,
0000
0000
0010
0000
0000
0000
0010
0000
0000
0010
0000
0010
,
0000
0010
0000
0000
0000
1001
0000
0000
0000
0100
0000
0000
,
0000
1010
0000
0000
0000
0100
0000
0000
0000
1010
0000
0000
,
0100
0000
0000
0000
1100
0000
0000
0000
1100
0000
0000
0000
,
0101
0000
0000
0000
0010
0000
0000
0000
0011
0000
0000
0000
,
0011
0000
0000
0110
0001
0000
0000
0110
0000
0000
0000
0000
,
1001
0000
0000
1001
0000
0000
0000
0001
0000
0000
0010
0000
,
0100
0000
0000
0010
0000
0100
0000
0000
0010
0000
0100
0000
,
0000
1000
0000
0000
1001
0000
0000
0000
1001
0000
0000
0100
,
0000
0000
0011
0000
0000
0000
0100
0000
0000
0000
0011
0000
,
0000
0000
0110
0000
0000
0000
1100
0000
0000
0110
0000
0000
,
0000
1001
0000
0000
0000
0110
0000
0000
0000
0011
0000
0000
,
0000
0000
0110
0000
0000
0000
1100
0000
0000
0000
0110
0000
,
0000
0000
1010
0000
0000
0000
1100
0000
0000
0000
0000
0110
,
0000
0000
0000
0101
0010
0000
0000
0100
0000
0000
0000
0010
,
0000
0000
0000
0110
0000
0000
0000
0001
0000
0000
0000
0010
,
0000
0100
0000
0000
0010
0000
0100
0000
0000
1001
0000
0000
,
0000
0101
0000
0000
0000
1010
0000
0000
0000
1100
0000
0000
,
0000
0110
0000
0000
0010
0001
0000
0000
0000
0110
0000
0000
,
0001
0000
0000
0000
0011
0000
0000
0000
0000
0110
0000
0000
,
0000
1100
0000
0000
0000
0011
0100
0000
0000
0000
0110
0000
,
0000
0000
1001
0000
0000
0000
0110
0000
0000
0000
0011
0000
,
0000
0000
0110
0000
0000
0000
1000
0100
0000
0000
0000
0110
,
0000
0000
1100
0000
0000
0000
0000
0110
0000
0000
1000
0100
,
0000
0000
0000
0110
0000
0000
0000
0011
0000
0000
0100
0010
,
0000
0000
0110
0000
0000
0110
0000
0000
0000
1001
0000
0000
,
0000
1001
0000
1001
0000
0000
0110
0000
0000
0000
1010
0000
,
0000
0000
1100
0000
0000
0000
0110
0000
0000
0000
1001
0000
,
0000
0101
0000
0000
0000
0000
0101
0000
0101
0000
0000
0011
,
0000
0000
0000
0010
0100
0110
0000
0000
0110
0000
0000
1000
,
0000
0000
1000
0000
0000
0000
1000
0000
1000
0000
0000
1001
,
0000
0000
0000
0001
0000
0000
0100
0000
0000
0000
0000
0111
,
0000
0000
0001
0000
0000
0000
0100
0000
0101
0000
0000
0000
,
0011
0000
0000
0000
0110
0000
0000
0000
1000
0100
0000
0000
,
0110
0000
0000
0000
1000
0000
0000
0000
0111
0000
0000
0000
,
0010
0100
0000
0110
0000
0000
0000
0000
1001
0000
0000
0000
,
0000
0011
0000
0000
0000
0110
0000
0000
0000
1100
0000
0000
,
0000
0110
0000
0000
0000
1000
0100
0000
0000
0000
0100
0000
,
0000
0000
0110
0000
0000
0000
1001
0000
0000
0000
0110
0000
,
0000
0000
0011
0000
0000
0000
0110
0000
0000
0000
0100
0000
,
0000
0000
0011
0000
0000
0000
0100
0000
0000
0000
0000
1001
,
0000
0000
0000
0101
0000
0000
0000
0000
0011
0000
0000
0010
,
0000
0000
0000
1000
0000
0000
0000
1100
0000
0000
0000
0100
,
0000
0000
0000
0110
0000
0000
0000
1000
0000
0000
0000
1001
,
0000
0000
0000
0100
0000
0000
0000
0101
0000
0000
0000
1000
,
0000
0000
0000
0100
0001
0000
0000
0000
0100
0000
0000
1001
,
0000
0000
0000
0010
0000
0000
0000
2002
0000
0000
0000
0000
,
0000
0000
0000
0000
3003
2200
0002
0000
0000
0000
3303
0000
,
0000
2202
0000
0000
0000
0000
0000
3303
0000
0220
0000
0000
,
0000
0000
0330
0000
2020
0000
0000
0000
0000
0000
3030
0000
,
2200
0000
0000
0000
0000
0000
0300
3000
0202
0000
0000
0000
,
0000
0000
0000
0303
0000
0022
0000
0000
0000
0000
0000
0000
,
0033
0000
2002
0000
0000
0000
0000
0000
3003
0000
0220
0000
,
0000
0000
0000
0000
0000
0330
0000
2002
0000
0000
0000
0000
,
0000
0000
3003
0220
0000
0000
0000
0330
2002
0000
0000
0000
,
0000
0000
0000
0000
,
0000
0000
0000
0200
,
0000
0000
0000
0000
,
0000
0000
0000
0000
0000
0000
0000
0000
3000
0303
0000
0000
,
1000
0100
0000
0010
0000
0000
0011
0000
0100
0000
1000
0100
,
0000
0010
0000
0001
0010
0000
0100
0000
1000
0100
0000
0010
,
0000
0001
0010
0000
0100
0000
1000
0100
0000
0010
0000
0000
,
0011
0000
0100
0000
0000
1000
0100
0000
0010
0000
0001
0010
,
0000
0100
0000
1000
0000
0100
0001
0000
0000
0010
0000
0100
,
0000
0000
1000
0001
0000
0000
1000
0001
0000
1000
0000
0001
,
1000
0000
0001
0000
1000
0001
0000
0000
1000
0001
0000
1000
,
0000
0001
0000
0100
0000
0000
0010
0000
0100
0000
0010
0000
,
0100
0000
1000
0100
0000
0001
0000
0010
0100
0000
1000
0001
,
0010
0100
0000
1000
0001
0000
0000
0010
0000
1000
0000
0000
,
0001
0000
1000
0000
0100
0000
0010
0000
0100
0000
0010
0000
,
0100
0000
1000
0100
0000
0000
1000
0000
0100
0000
1000
0100
,
0000
1000
0000
0100
0000
0000
1000
0100
0000
0010
0000
0000
,
0011
0000
0000
0100
0000
1000
0001
0000
0000
0010
0000
0001
,
0000
0010
0000
0001
0000
0010
0000
0001
0000
0010
0000
0000
,
0100
0000
0010
0000
0100
0000
0010
0000
0100
0000
0000
0010
,
0000
0100
0000
0010
0000
0000
1000
0000
0100
0000
0010
0000
,
0000
0011
0000
0000
0100
0000
1000
0100
0000
0010
0000
0000
,
0011
0000
0000
0100
0000
1000
0000
0100
0000
0010
0000
0100
,
0000
0000
0000
0100
0000
0000
0000
1001
0000
0000
0000
0110
,
0000
0000
0000
1010
0000
0000
0000
1100
0000
0000
0000
0100
,
0000
0010
0000
0100
0000
0000
0010
0000
0000
0010
0000
0000
,
0010
0000
1000
0001
0000
0100
0000
0000
0001
0000
0010
0000
,
0100
0000
1000
0000
0100
0000
0010
0000
0001
0010
0000
0100
,
0000
1000
0000
0100
0000
0010
0000
0000
0011
0000
0100
0000
,
1000
0000
0100
0000
0010
0000
0001
0010
0000
0100
0000
1000
,
0100
0000
0000
0010
0000
0100
0000
0010
0000
0100
0000
0010
,
0000
1000
0000
0001
0000
1000
0001
0000
0000
1000
0001
0000
,
0100
0000
0000
0001
0000
0010
0000
0001
0000
0000
0000
0000
,
0100
0000
1000
0000
0100
0000
0010
0000
0100
0000
0010
0100
,
0000
0000
1001
0000
0000
0000
0100
0000
0000
0110
0000
0000
,
0000
1010
0000
0000
0000
0000
1010
0000
0000
1100
0000
0000
,
0101
0000
0000
0110
0000
0000
0000
1001
0000
0000
0000
0110
,
0000
0000
0000
0011
0000
0000
0000
0110
0000
0000
1000
0100
,
0000
0000
0110
0000
0000
1100
0000
0000
0000
0101
0000
0000
,
0000
0101
0000
0000
0000
0011
0000
0000
0000
0110
0000
0000
,
0000
1100
0000
0000
0000
0000
0110
0000
0000
1001
0000
0000
,
0000
0000
0110
0000
0000
0011
0000
0000
0000
0000
0110
0000
,
0000
0000
1100
0000
0000
0000
0110
0000
0000
0000
0000
1010
,
0000
0000
0000
0100
0000
0000
0000
1010
0000
0000
0000
0100
,
0000
0000
0000
0000
0010
0000
0000
0000
0010
0000
0000
0010
,
0000
0000
0000
1000
0000
0100
0000
0000
0000
0010
0000
0000
,
0001
0000
0000
0000
0100
0000
0010
0000
0100
0000
0000
1000
,
0000
0100
0000
0010
0000
0100
0000
0010
0000
0100
0000
0000
,
0000
1001
0000
0000
0000
0000
0101
0000
0000
0000
0000
1101
,
0000
0000
0000
0000
1010
0000
0000
1100
0000
0000
0000
0000
,
0000
0101
0000
0000
0000
0000
0010
0000
0000
0000
0000
0000
,
1000
0100
0000
0000
0010
0000
0000
0100
0000
0000
0000
0000
,
0000
0001
0000
0000
0000
0001
0000
0000
0000
0001
0000
0000
,
0000
0100
0000
0001
0010
0000
0100
0000
1000
0000
0000
0000
,
0000
0010
0000
0100
0000
1000
0000
0000
0000
0000
0000
0100
,
0000
0000
0000
0010
0000
0000
0000
0000
0000
1000
0100
0000
,
0010
0000
0000
0000
0000
0000
0000
0001
0010
0000
0100
0000
,
0000
0001
0000
0010
0000
0000
0100
0000
0000
1000
0000
0000
,
0000
0010
0000
0000
0000
0000
0100
0000
0000
0010
0000
0000
,
0100
0000
0000
0010
0000
0000
0000
0000
1000
0100
0000
0010
,
0000
0001
0010
0000
0000
0000
0000
0100
0000
0010
0000
0000
,
0100
0000
0010
0000
0000
0000
1000
0000
0000
0000
0000
1101
,
0000
0000
0000
0000
0100
0000
0000
1001
0000
1001
0000
0000
,
0000
0000
0000
0110
0000
0000
0000
0010
0000
0000
0000
0100
,
0000
0010
0000
0000
0000
0000
1000
0000
0000
0100
0000
0000
,
0000
0000
0010
0000
0000
0000
0001
0000
0000
0100
0000
0000
,
0000
0000
0000
0001
0000
0010
0000
0100
0000
0000
0001
0000
,
0010
0000
0100
0000
0000
0000
1000
0000
0000
0000
0000
0000
,
0010
0000
0000
0000
0000
0100
0000
0000
0000
0000
0010
0000
,
0010
0000
0000
0000
0000
0000
0000
1000
0000
0000
0000
0000
;
